Loading...
 * Dettagli Torrent   globale  | Commenti (0) 


- Donnie Darko (2001) The Director s Cut.720p.H264.italian.english.Ac3-5.1.sub.ita.eng-MIRCrew -


Download via torrent:
Categoria bittorrent BDRip
Descrizione
Donnie Darko (2001) The Director s Cut.720p.H264.italian.english.Ac3-5.1.sub.ita.eng-MIRCrew



NO FOUND ONLY ORIGINAL RELEASE



My release is always in double track audio italian and Original audio
for select it use VLC or dvd player home
not use wmp

Donnie Darko (2001)

The Director s Cut

Quality MIRCrew on HD 720p da  2,6 gb










Paese di produzione Stati Uniti d'America
Anno 2001
Durata 113 min
133 min (director's cut)
Rapporto 2.35:1
Genere fantascienza, thriller, drammatico
Regia Richard Kelly
Soggetto Richard Kelly
Sceneggiatura Richard Kelly



   Jake Gyllenhaal: Donnie Darko
   Jena Malone: Gretchen Ross
   Drew Barrymore: Karen Pomeroy
   Mary McDonnell: Rose Darko
   Maggie Gyllenhaal: Elizabeth Darko
   Daveigh Chase: Samantha Darko
   Holmes Osborne: Eddie Darko
   Katharine Ross: Dott.ssa Lilian Thurman
   Patrick Swayze: Jim Cunningham
   Noah Wyle: Prof. Kenneth Monnitoff



È la notte del 2 ottobre 1988, la televisione trasmette i confronti tra George H. W. Bush e Michael Dukakis, la figlia maggiore Elizabeth rincasa, quando l'esistenza della famiglia Darko viene sconvolta dalla caduta di un motore d'aereo precipitato direttamente nella camera di Donnie.



A troubled teenager is plagued by visions of a man in a large rabbit suit who manipulates him to commit a series of crimes, after he narrowly escapes a bizarre accident.









General
Unique ID                                : 5452226212369701765577302475279958685 (0x41A0F81AF8DA4D4209E41F269F8029D)
Complete name                            : Donnie Darko (2001) The Director's Cut.720p.h264.ita.eng.sub.ita.eng-MIRCrewDonnie Darko (2001) The Director's Cut.720p.h264.ita.eng.sub.ita.eng-MIRCrew.mkv
Format                                   : Matroska
Format version                           : Version 4 / Version 2
File size                                : 2.62 GiB
Duration                                 : 2h 13mn
Overall bit rate                         : 2 798 Kbps
Movie name                               : MIRCrew
Encoded date                             : UTC 2019-01-17 17:40:35
Writing application                      : mkvmerge v26.0.0 ('In The Game&#39 64-bit
Writing library                          : Lavf54.63.100
COMMENT                                  : mircrew-releases

Video
ID                                       : 1
Format                                   : AVC
Format/Info                              : Advanced Video Codec
Format profile                           : [email protected]
Format settings, CABAC                   : Yes
Format settings, ReFrames                : 2 frames
Codec ID                                 : V_MPEG4/ISO/AVC
Duration                                 : 2h 13mn
Bit rate                                 : 1 900 Kbps
Width                                    : 1 280 pixels
Height                                   : 528 pixels
Display aspect ratio                     : 2.40:1
Original display aspect ratio            : 2.40:1
Frame rate mode                          : Variable
Frame rate                               : 23.976 fps
Color space                              : YUV
Chroma subsampling                       : 4:2:0
Bit depth                                : 8 bits
Scan type                                : Progressive
Bits/(Pixel*Frame)                       : 0.117
Stream size                              : 1.73 GiB (66%)
Title                                    : MIRCrew
Writing library                          : x264 core 130 r2273
Encoding settings                        : cabac=1 / ref=2 / deblock=1:0:0 / analyse=0x1:0x131 / me=hex / subme=7 / psy=1 / psy_rd=1.00:0.00 / mixed_ref=0 / me_range=16 / chroma_me=1 / trellis=1 / 8x8dct=0 / cqm=0 / deadzone=21,11 / fast_pskip=1 / chroma_qp_offset=-2 / threads=6 / lookahead_threads=1 / sliced_threads=0 / nr=0 / decimate=1 / interlaced=0 / bluray_compat=0 / constrained_intra=0 / bframes=3 / b_pyramid=0 / b_adapt=1 / b_bias=0 / direct=3 / weightb=1 / open_gop=0 / weightp=2 / keyint=230 / keyint_min=23 / scenecut=40 / intra_refresh=0 / rc_lookahead=40 / rc=2pass / mbtree=1 / bitrate=1900 / ratetol=1.0 / qcomp=0.60 / qpmin=10 / qpmax=69 / qpstep=4 / cplxblur=20.0 / qblur=0.5 / vbv_maxrate=24000 / vbv_bufsize=24000 / nal_hrd=none / ip_ratio=1.40 / aq=1:1.00
Language                                 : Italian
Default                                  : Yes
Forced                                   : No
DURATION                                 : 02:13:51.100000000
NUMBER_OF_FRAMES                         : 192554
NUMBER_OF_BYTES                          : 1906993870
_STATISTICS_WRITING_APP                  : mkvmerge v26.0.0 ('In The Game&#39 64-bit
_STATISTICS_WRITING_DATE_UTC             : 2019-02-03 12:57:41
_STATISTICS_TAGS                         : BPS DURATION NUMBER_OF_FRAMES NUMBER_OF_BYTES

Audio #1
ID                                       : 2
Format                                   : AC-3
Format/Info                              : Audio Coding 3
Mode extension                           : CM (complete main)
Codec ID                                 : A_AC3
Duration                                 : 2h 13mn
Bit rate mode                            : Constant
Bit rate                                 : 448 Kbps
Channel(s)                               : 6 channels
Channel positions                        : Front: L C R, Side: L R, LFE
Sampling rate                            : 48.0 KHz
Bit depth                                : 16 bits
Compression mode                         : Lossy
Delay relative to video                  : -5ms
Stream size                              : 429 MiB (16%)
Title                                    : Ita Ac3 5.1
Language                                 : Italian
Default                                  : Yes
Forced                                   : Yes
DURATION                                 : 02:13:51.040000000
NUMBER_OF_FRAMES                         : 250970
NUMBER_OF_BYTES                          : 449738240
_STATISTICS_WRITING_APP                  : mkvmerge v26.0.0 ('In The Game&#39 64-bit
_STATISTICS_WRITING_DATE_UTC             : 2019-02-03 12:57:41
_STATISTICS_TAGS                         : BPS DURATION NUMBER_OF_FRAMES NUMBER_OF_BYTES

Audio #2
ID                                       : 3
Format                                   : AC-3
Format/Info                              : Audio Coding 3
Mode extension                           : CM (complete main)
Codec ID                                 : A_AC3
Duration                                 : 2h 13mn
Bit rate mode                            : Constant
Bit rate                                 : 448 Kbps
Channel(s)                               : 6 channels
Channel positions                        : Front: L C R, Side: L R, LFE
Sampling rate                            : 48.0 KHz
Bit depth                                : 16 bits
Compression mode                         : Lossy
Delay relative to video                  : -5ms
Stream size                              : 429 MiB (16%)
Title                                    : Eng Ac3 5.1
Language                                 : English
Default                                  : No
Forced                                   : No
DURATION                                 : 02:13:51.040000000
NUMBER_OF_FRAMES                         : 250970
NUMBER_OF_BYTES                          : 449738240
_STATISTICS_WRITING_APP                  : mkvmerge v26.0.0 ('In The Game&#39 64-bit
_STATISTICS_WRITING_DATE_UTC             : 2019-02-03 12:57:41
_STATISTICS_TAGS                         : BPS DURATION NUMBER_OF_FRAMES NUMBER_OF_BYTES



Info: Per scaricare devi usare un client come uTorrent o Transmission
AnnounceURL
udp://tracker.coppersurfer.tk:6969/announce
Hash a85aff3fae9a15b72ea48ad7eb4dd4138d60edf1
Peers seeds: 58 , leech: 25
Size 2.62 GB
Completato 147x
Aggiunto 08.02.19 - 19:02:58
Uploader   robbyrs
Votazione (Voti: 0)


Condividi questo bittorrent:


html/blog:


bbcode/forum:




Aggiungi Commento


counter Teachers (2016) - Saison 2 (Ajout de l'Episode : 5) (HDTV) | IMDb: 7.4 2,331 S1E1 The Passage - Season 1 | Miraï, ma petite soeur