Loading...
 * Dettagli Torrent   globale  | Commenti (0) 


- Star Trek Discovery 2x04.720p.H264.ita.eng Ac3 5.1.sub.ita.eng-MIRCrew -


Download via torrent:
Categoria bittorrent SerieTv
Descrizione
Star Trek Discovery 2x04 An Obol for Charon - Un obolo per la Charon - Un obolo per la Charon.720p.H264.ita.eng Ac3 5.1.sub.ita.eng-MIRCrew





La seconda stagione della serie televisiva Star Trek: Discovery, composta da 14 episodi, verrà pubblicata settimanalmente dal servizio di video on demand CBS All Access dal 17 gennaio 201
 

Titolo originale Star Trek: Discovery
Paese Stati Uniti
Anno 2017 - In Produzione
Formato serie TV
Genere fantascienza

Episodi:

01 - Brother - Fratello
02 - New Eden - Nuovo Eden
03 - Point of Light - Di luce
04 - An Obol for Charon - Un obolo per la Charon





General
Unique ID                                : 55167786818071664165345664233014428910 (0x2980EDE3F9375D5CB6B52881A5D604EE)
Complete name                            : C:UsersPublicVideosStar Trek Discovery 2x04 An Obol for Charon - Un obolo per la Charon - Un obolo per la Charon.720p.H264.ita.eng Ac3 5.1.sub.ita.eng-MIRCrewStar Trek Discovery 2x04.720p.H264.ita.eng Ac3 5.1.sub.ita.eng-MIRCrew.mkv
Format                                   : Matroska
Format version                           : Version 2
File size                                : 990 MiB
Duration                                 : 51mn 47s
Overall bit rate                         : 2 673 Kbps
Movie name                               : MIRCrew
Encoded date                             : UTC 2019-02-09 08:34:43
Writing application                      : Lavf54.63.100
Writing library                          : Lavf54.63.100
ARTIST                                   : MIRCrew
COMMENT                                  : mircrew-releases

Video
ID                                       : 1
Format                                   : AVC
Format/Info                              : Advanced Video Codec
Format profile                           : [email protected]
Format settings, CABAC                   : Yes
Format settings, ReFrames                : 2 frames
Codec ID                                 : V_MPEG4/ISO/AVC
Duration                                 : 51mn 47s
Bit rate                                 : 1 900 Kbps
Width                                    : 1 280 pixels
Height                                   : 720 pixels
Display aspect ratio                     : 16:9
Frame rate mode                          : Variable
Frame rate                               : 24.000 fps
Color space                              : YUV
Chroma subsampling                       : 4:2:0
Bit depth                                : 8 bits
Scan type                                : Progressive
Bits/(Pixel*Frame)                       : 0.086
Stream size                              : 686 MiB (69%)
Writing library                          : x264 core 130 r2273
Encoding settings                        : cabac=1 / ref=2 / deblock=1:-1:-1 / analyse=0x1:0x131 / me=hex / subme=7 / psy=1 / psy_rd=1.00:0.10 / mixed_ref=0 / me_range=16 / chroma_me=1 / trellis=1 / 8x8dct=0 / cqm=0 / deadzone=21,11 / fast_pskip=1 / chroma_qp_offset=-3 / threads=6 / lookahead_threads=1 / sliced_threads=0 / nr=0 / decimate=1 / interlaced=0 / bluray_compat=0 / constrained_intra=0 / bframes=3 / b_pyramid=0 / b_adapt=1 / b_bias=0 / direct=3 / weightb=1 / open_gop=0 / weightp=2 / keyint=240 / keyint_min=24 / scenecut=40 / intra_refresh=0 / rc_lookahead=40 / rc=2pass / mbtree=1 / bitrate=1900 / ratetol=1.0 / qcomp=0.60 / qpmin=10 / qpmax=69 / qpstep=4 / cplxblur=20.0 / qblur=0.5 / vbv_maxrate=24000 / vbv_bufsize=24000 / nal_hrd=none / ip_ratio=1.40 / aq=1:1.00
Language                                 : Italian
Default                                  : Yes
Forced                                   : No
_STATISTICS_WRITING_APP                  : mkvmerge v7.1.0 ('Good Love&#39 32bit built on Jul 27 2014 12:59:18
_STATISTICS_WRITING_DATE_UTC             : 2019-02-09 08:34:43
_STATISTICS_TAGS                         : BPS DURATION NUMBER_OF_FRAMES NUMBER_OF_BYTES
DURATION                                 : 00:51:47.209000000
NUMBER_OF_FRAMES                         : 74573
NUMBER_OF_BYTES                          : 3594192823

Audio #1
ID                                       : 2
Format                                   : AC-3
Format/Info                              : Audio Coding 3
Mode extension                           : CM (complete main)
Codec ID                                 : A_AC3
Duration                                 : 51mn 47s
Bit rate mode                            : Constant
Bit rate                                 : 384 Kbps
Channel(s)                               : 6 channels
Channel positions                        : Front: L C R, Side: L R, LFE
Sampling rate                            : 48.0 KHz
Bit depth                                : 16 bits
Compression mode                         : Lossy
Delay relative to video                  : 1mn 5s
Stream size                              : 142 MiB (14%)
Title                                    : ITA
Language                                 : Italian
Default                                  : Yes
Forced                                   : Yes
DURATION                                 : 00:51:47.296000000
NUMBER_OF_FRAMES                         : 97103
NUMBER_OF_BYTES                          : 149150208
_STATISTICS_WRITING_APP                  : mkvmerge v7.1.0 ('Good Love&#39 32bit built on Jul 27 2014 12:59:18
_STATISTICS_WRITING_DATE_UTC             : 2019-02-09 08:34:43
_STATISTICS_TAGS                         : BPS DURATION NUMBER_OF_FRAMES NUMBER_OF_BYTES

Audio #2
ID                                       : 3
Format                                   : AC-3
Format/Info                              : Audio Coding 3
Mode extension                           : CM (complete main)
Codec ID                                 : A_AC3
Duration                                 : 51mn 47s
Bit rate mode                            : Constant
Bit rate                                 : 384 Kbps
Channel(s)                               : 6 channels
Channel positions                        : Front: L C R, Side: L R, LFE
Sampling rate                            : 48.0 KHz
Bit depth                                : 16 bits
Compression mode                         : Lossy
Delay relative to video                  : 1mn 5s
Stream size                              : 142 MiB (14%)
Title                                    : ENG
Language                                 : English
Default                                  : No
Forced                                   : No
DURATION                                 : 00:51:47.264000000
NUMBER_OF_FRAMES                         : 97102
NUMBER_OF_BYTES                          : 149148672
_STATISTICS_WRITING_APP                  : mkvmerge v7.1.0 ('Good Love&#39 32bit built on Jul 27 2014 12:59:18
_STATISTICS_WRITING_DATE_UTC             : 2019-02-09 08:34:43
_STATISTICS_TAGS                         : BPS DURATION NUMBER_OF_FRAMES NUMBER_OF_BYTES




Info: Per scaricare devi usare un client come uTorrent o Transmission
AnnounceURL
udp://tracker.coppersurfer.tk:6969/announce
Hash 3c79cca5b56a204292677efa21fa7fc2325640fb
Peers seeds: 50 , leech: 21
Size 990.37 MB
Completato 341x
Aggiunto 10.02.19 - 15:02:22
Uploader   robbyrs
Votazione (Voti: 0)


Condividi questo bittorrent:


html/blog:


bbcode/forum:




Aggiungi Commento


counter The Steam Engines of Oz | Animation | DJRoom VR Online Radio Disco apk